오늘 이제서야 마지막회인 13회를 끝으로 매듭을 짓게되나 봅니다.

오늘은 이 파일에 대한 릴 정보도 함께 올리도록 하겠습니다.

 

[File Info]
--------------------
무풍지대(無風地帶)13회.mp4
  General
    Complete name : 무풍지대(無風地帶)13회.mp4
    Format : MPEG-4
    Format profile : Base Media / Version 2
    Codec ID : mp42
    File size : 290 MiB
    Duration : 1h 12mn
    Overall bit rate mode : Variable
    Overall bit rate : 561 Kbps
    Encoded date : UTC 2013-02-15 11:45:01
    Tagged date : UTC 2013-02-15 11:45:38
    쯙IM : 00:00:00:00
    쯙SC : 30000
    쯙SZ : 1001
  Video #1
    ID : 1
    Format : AVC
    Format/Info : Advanced Video Codec
    Format profile : High@L3.0
    Format settings, CABAC : Yes
    Format settings, ReFrames : 3 frames
    Codec ID : avc1
    Codec ID/Info : Advanced Video Coding
    Duration : 1h 12mn
    Source duration : 1h 12mn
    Bit rate : 494 Kbps
    Width : 640 pixels
    Height : 480 pixels
    Display aspect ratio : 4:3
    Frame rate mode : Variable
    Frame rate : 29.970 fps
    Minimum frame rate : 29.970 fps
    Maximum frame rate : 30.000 fps
    Standard : NTSC
    Color space : YUV
    Chroma subsampling : 4:2:0
    Bit depth : 8 bits
    Scan type : Progressive
    Bits/(Pixel*Frame) : 0.054
    Stream size : 255 MiB (88%)
    Source stream size : 255 MiB (88%)
    Language : English
    Encoded date : UTC 2013-02-15 11:45:01
    Tagged date : UTC 2013-02-15 11:45:01
    mdhd_Duration : 4335098
    Color primaries : BT.601 NTSC
    Transfer characteristics : BT.601
    Matrix coefficients : BT.601
  Audio #2
    ID : 2
    Format : AAC
    Format/Info : Advanced Audio Codec
    Format profile : HE-AAC / LC
    Codec ID : 40
    Duration : 1h 12mn
    Source duration : 1h 12mn
    Bit rate mode : Variable
    Bit rate : 62.7 Kbps
    Maximum bit rate : 109 Kbps
    Channel(s) : 2 channels
    Channel positions : Front: L R
    Sampling rate : 48.0 KHz / 24.0 KHz
    Compression mode : Lossy
    Stream size : 32.4 MiB (11%)
    Source stream size : 32.4 MiB (11%)
    Language : English
    Encoded date : UTC 2013-02-15 11:45:01
    Tagged date : UTC 2013-02-15 11:45:01
    mdhd_Duration : 4335190

--------------------

 

일부 캡쳐한 이미지

 

파일링크1 :

 

무풍지대(無風地帶)13회.exe : http://www.datafilehost.com/download-99958109.html

 

무풍지대(無風地帶)13회.e01 : http://www.datafilehost.com/download-9a3d62ca.html

 

무풍지대(無風地帶)13회.e02 : http://www.datafilehost.com/download-e0220577.html

 

파일링크2 : http://d-h.st/EmI

 

자체 첨부파일

 

무풍지대(無風地帶)13회.e01

무풍지대(無風地帶)13회.e02

무풍지대(無風地帶)13회.e03

무풍지대(無風地帶)13회.e04

무풍지대(無風地帶)13회.e05

무풍지대(無風地帶)13회.e06

무풍지대(無風地帶)13회.e07

무풍지대(無風地帶)13회.e08

무풍지대(無風地帶)13회.e09

무풍지대(無風地帶)13회.e10

무풍지대(無風地帶)13회.e11

무풍지대(無風地帶)13회.e12

무풍지대(無風地帶)13회.e13

무풍지대(無風地帶)13회.e14

무풍지대(無風地帶)13회.e15

무풍지대(無風地帶)13회.e16

무풍지대(無風地帶)13회.e17

무풍지대(無風地帶)13회.e18

무풍지대(無風地帶)13회.e19

무풍지대(無風地帶)13회.e20

무풍지대(無風地帶)13회.e21

무풍지대(無風地帶)13회.e22

무풍지대(無風地帶)13회.e23

무풍지대(無風地帶)13회.e24

무풍지대(無風地帶)13회.e25

무풍지대(無風地帶)13회.e26

무풍지대(無風地帶)13회.e27

무풍지대(無風地帶)13회.e28

무풍지대(無風地帶)13회.e29

무풍지대(無風地帶)13회.exe

 

Posted by sung129k

댓글을 달아 주세요

  1. 2013.05.11 22:37  댓글주소  수정/삭제  댓글쓰기

    비밀댓글입니다

이제 계속해서 12회를 올리겠습니다.

마지막 회인 13회까지 얼마안남았군요. ^^

13회는 주말에 올리기 힘들것 같아서 하는 말입니다만.

주말엔 제 개인사정으로 여의치 않게되면 다음주 월요일에 마저 올리는게 아닌가 싶습니다.

 

파일링크1 :

 

무풍지대(無風地帶)12회.exe : http://www.datafilehost.com/download-a59e784b.html

 

무풍지대(無風地帶)12회.e01 : http://www.datafilehost.com/download-18df2aa3.html

 

무풍지대(無風地帶)12회.e02 : http://www.datafilehost.com/download-e041d5b8.html

 

파일링크2 : http://d-h.st/Atq

 

자체 첨부파일 :

무풍지대(無風地帶)12회.e01

무풍지대(無風地帶)12회.e02

무풍지대(無風地帶)12회.e03

무풍지대(無風地帶)12회.e04

무풍지대(無風地帶)12회.e05

무풍지대(無風地帶)12회.e06

무풍지대(無風地帶)12회.e07

무풍지대(無風地帶)12회.e08

무풍지대(無風地帶)12회.e09

무풍지대(無風地帶)12회.e10

무풍지대(無風地帶)12회.e11

무풍지대(無風地帶)12회.e12

무풍지대(無風地帶)12회.e13

무풍지대(無風地帶)12회.e14

무풍지대(無風地帶)12회.e15

무풍지대(無風地帶)12회.e16

무풍지대(無風地帶)12회.e17

무풍지대(無風地帶)12회.e18

무풍지대(無風地帶)12회.e19

무풍지대(無風地帶)12회.e20

무풍지대(無風地帶)12회.e21

무풍지대(無風地帶)12회.e22

무풍지대(無風地帶)12회.e23

무풍지대(無風地帶)12회.e24

무풍지대(無風地帶)12회.e25

무풍지대(無風地帶)12회.e26

무풍지대(無風地帶)12회.e27

무풍지대(無風地帶)12회.e28

무풍지대(無風地帶)12회.exe

Posted by sung129k

댓글을 달아 주세요

다시 11회부터 올리겠습니다.

정말이지 동영상 파일인코딩을 해서 올리는것 자체가 다시한번 말하지만 보통 쉬운게 아닙니다.

이게 막대한 시간자원이란 시간자원을 요구하기 때문이죠.

이 때문에 또다시 올리는게 늦어진겁니다.

아무튼 잡담 그만하고 파일이나 첨부하겠습니다.

 

파일링크1 :

 

무풍지대(無風地帶)11회.exe : http://www.datafilehost.com/download-2d88eef7.html

 

무풍지대(無風地帶)11회.e01 : http://www.datafilehost.com/download-ed57a4da.html

 

무풍지대(無風地帶)11회.e02 : http://www.datafilehost.com/download-be5aaf7e.html

 

파일링크2 : http://d-h.st/HIA

자체 첨부파일 :

 

무풍지대(無風地帶)11회.e01

무풍지대(無風地帶)11회.e02

무풍지대(無風地帶)11회.e03

무풍지대(無風地帶)11회.e04

무풍지대(無風地帶)11회.e05

무풍지대(無風地帶)11회.e06

무풍지대(無風地帶)11회.e07

무풍지대(無風地帶)11회.e08

무풍지대(無風地帶)11회.e09

무풍지대(無風地帶)11회.e10

무풍지대(無風地帶)11회.e11

무풍지대(無風地帶)11회.e12

무풍지대(無風地帶)11회.e13

무풍지대(無風地帶)11회.e14

무풍지대(無風地帶)11회.e15

무풍지대(無風地帶)11회.e16

무풍지대(無風地帶)11회.e17

무풍지대(無風地帶)11회.e18

무풍지대(無風地帶)11회.e19

무풍지대(無風地帶)11회.e20

무풍지대(無風地帶)11회.e21

무풍지대(無風地帶)11회.e22

무풍지대(無風地帶)11회.e23

무풍지대(無風地帶)11회.e24

무풍지대(無風地帶)11회.e25

무풍지대(無風地帶)11회.e26

무풍지대(無風地帶)11회.e27

무풍지대(無風地帶)11회.e28

무풍지대(無風地帶)11회.e29

무풍지대(無風地帶)11회.exe

Posted by sung129k

댓글을 달아 주세요